#TITLE:DoGpOuNd;
#SUBTITLE:Initiate;
#ARTIST:SoulJa;
#TITLETRANSLIT:;
#SUBTITLETRANSLIT:;
#ARTISTTRANSLIT:;
#CREDIT:;
#BANNER:dp-bn.png;
#BACKGROUND:;
#LYRICSPATH:;
#CDTITLE:cdtitle.png;
#MUSIC:DoGpOuNd- SoulJa.ogg;
#OFFSET:0.000;
#SAMPLESTART:100.000;
#SAMPLELENGTH:12.000;
#SELECTABLE:YES;
#DISPLAYBPM:108.000;
#BPMS:0.000=108.000,160.500=216.000,161.500=108.000,185.000=216.000,187.000=108.000;
#STOPS:;
#BGCHANGES:;
// cache tags:
#FIRSTBEAT:0.000;
#LASTBEAT:277.500;
#SONGFILENAME:Songs/Initiate/dogpound/DoGpOuNd- SoulJa.sm;
#HASMUSIC:1;
#HASBANNER:1;
#MUSICLENGTH:154.312;
// end cache tags

//---------------dance-single - ----------------
#NOTES:
     dance-single:
     :
     Hard:
     9:
     1.000,1.000,1.000,0.194,1.000,876.000,290.000,30.000,0.000,20.000:
0001
0000
0010
0000
0100
0000
0010
0000
1001
0000
0100
0000
0010
0000
0100
0000
1010
0000
0001
0000
1000
0010
0001
0100
1000
0010
0001
0100
1000
0010
0001
0100
,
1001
0010
0110
0100
1100
0100
0112
0000
,
0123
0000
0100
0000
1130
0000
0100
0000
0101
0000
0100
0000
0112
1000
0100
0010
,
0103
0000
0010
0000
0100
0000
1001
0000
0000
0000
0000
0000
0100
0000
0010
0000
0100
0000
1001
0000
0000
0000
0100
0000
0000
1000
0000
0000
0000
0000
0000
0000
,
0100
0000
0001
0000
0100
0000
0110
0000
0000
0000
0000
0000
0100
0000
0001
0000
0100
0000
0110
0000
0001
1000
0001
1000
0001
1000
0001
1000
0001
0000
0000
0000
,
0101
0010
0201
0000
1301
0110
1001
0000
,
0101
0010
1020
0000
0131
1010
0101
0000
,
0001
0010
0100
1000
1001
0010
0100
1000
1001
0010
0100
0010
1001
0000
0101
0000
,
1010
0000
0101
0000
1010
0000
0101
1010
0101
1000
0100
1000
0101
0010
0100
0000
,
1001
0010
0100
0010
0101
0100
0100
0010
1001
0100
0010
0100
1010
0000
1000
0100
,
0011
0000
1000
0100
1010
0000
0010
0001
1010
0100
1000
0100
0011
0000
0010
0001
,
1010
0100
0010
0001
1010
0000
0010
0001
0110
1000
0100
0010
0101
0000
0001
0010
,
1100
0010
0100
1000
0110
0001
0010
0100
1010
0000
0010
0001
0110
1000
0100
0010
,
1001
0000
0010
0001
1010
0100
1000
0100
0011
0000
0010
0001
0110
0001
0010
0100
,
1010
0110
0010
0001
0110
0100
1000
1000
0011
1000
0100
0010
1100
0000
0010
0100
,
0011
1000
0100
0010
1001
0010
0100
1000
0201
0000
0000
0000
1301
0110
1001
0000
,
0001
0000
0001
0010
1001
1000
0100
1000
1001
0001
0010
0001
1001
1000
0100
1000
,
1010
0010
1000
0010
0110
0100
0001
0100
0110
0010
1000
0010
0110
0100
0001
0100
,
0110
0010
1000
0010
1010
1000
0100
1000
1010
0010
0001
0010
1010
1000
0100
1000
,
1001
0001
0010
0001
0101
0100
0010
0100
0101
0001
0010
0001
0101
0100
0010
0100
,
0101
0010
0100
1000
1001
0010
0100
1000
1001
0010
0100
0010
1001
0010
0100
0010
,
1001
0100
0010
0001
1001
0100
0010
0001
1001
0100
0010
0100
1001
0100
0010
0100
,
1001
0100
0001
0100
1001
0100
1000
0100
1001
0100
0001
0100
1001
0100
1000
0100
,
1001
0010
0001
0010
1001
0010
1000
0010
1001
0010
0001
0010
1001
0010
1000
0010
,
1001
0000
1001
0000
1020
0000
0000
0000
1130
0110
0010
0001
0110
0110
0110
0110
,
0110
0001
0100
1000
0110
0000
0100
0001
0000
0010
0101
0000
0110
0000
1100
0001
,
1100
0001
1100
0001
1100
0010
0100
1000
0101
0000
0110
1001
0000
0000
0100
1000
,
0100
0010
1001
0010
1001
0010
1001
0010
1001
0100
0010
0001
0110
0000
1001
0110
,
1010
0000
0101
0000
2010
0000
0000
0000
3101
1010
0101
1010
0101
0000
0010
0000
,
0101
0000
0101
1000
0110
0000
0001
0110
0000
0010
1001
0000
0101
0000
0010
0100
,
1001
0100
1001
0100
1001
0100
1001
0100
1001
0100
0010
1000
0100
0000
0100
1000
,
0100
0000
0100
0000
1000
0100
1000
0100
1000
0000
1001
0110
1001
0000
0110
1001
,
0110
1001
0120
0000
1130
0110
0011
0000
,
0001
0010
0001
0010
0011
0001
0010
0001
0011
0001
0010
0001
0011
0001
0010
0001
,
0111
0000
0100
1000
0101
0010
0001
0010
0100
0001
0100
0010
1001
0100
0010
0001
,
0010
0000
0100
0000
1000
0000
0010
0000
0101
0000
0100
0000
0100
0000
1000
0000
0100
0000
1000
0000
0100
0000
0001
0010
1100
0000
0010
0000
0001
0000
0100
0000
,
0010
0100
0012
1000
0113
1000
0100
0010
0100
0010
0100
0010
0201
1000
0301
0010
,
0100
1000
0100
0010
0102
1000
0013
1000
0100
0010
0001
0010
0101
1000
0100
1000
,
0010
0001
0100
0010
1001
0100
1000
0010
0100
0010
0001
0100
1010
0001
1000
0100
,
0001
0100
1000
0100
1001
0010
0100
0001
0100
0010
0001
1000
0011
0100
1000
0001
,
0200
0000
0020
0000
0000
0000
0000
0000
0331
1000
0100
1000
0100
0000
0101
0000
,
0100
0000
0100
0000
0100
0000
0101
0000
0100
0000
0100
0010
0101
0000
2000
0000
,
3100
0000
0010
0000
1000
0001
0100
0000
0001
0100
1000
0000
0100
0001
0000
0101
,
0010
0000
1000
0100
1000
0100
1000
0100
1000
0001
1000
0100
1000
0001
0010
0000
,
1000
0000
0001
0000
1000
0001
1000
0010
1000
0001
1000
0010
1000
0001
1000
0010
,
1000
0001
1010
0000
1000
0100
1000
0010
1000
0100
1000
0010
1000
0100
1000
0010
,
1000
0001
1000
0010
0202
0000
0000
0000
0000
0000
0000
0000
0313
0100
0010
0100
,
0010
0200
0000
0010
1300
0000
0010
0100
1000
0100
1010
0001
0100
1000
0010
0100
,
1000
0100
1001
0100
1000
0010
0100
0010
0100
1000
0011
0100
1000
0100
1000
0100
,
0010
0001
1010
0100
0001
1000
0100
0010
0001
0100
1010
0100
1000
0100
0010
0001
,
0020
0200
0030
0000
0000
0000
0301
0010
0100
0010
1001
0110
1001
0110
1001
0110
,
1001
0110
2002
0000
3003
0000
1001
0000
0100
1000
0101
0000
1000
0100
0000
0100
,
0001
0000
1001
0000
0100
0001
1001
0010
0100
1000
0110
0010
0001
0100
1100
0000
,
1001
0110
0000
0000
0110
0000
0101
1001
0010
0100
0011
0001
0010
0100
0110
0100
,
1000
0100
0010
0000
1010
0100
0011
0000
1001
0000
0210
0000
0000
0000
0311
0010
,
0001
0010
0011
0010
0010
0010
0011
0000
0100
0100
0010
0000
1000
0010
0000
1000
,
0100
0000
0001
0000
0100
0010
1000
0100
0010
0100
0001
0010
0100
1000
0100
0000
,
0010
0010
0101
0000
1001
0110
1001
0000
1010
0000
1010
0101
1010
0101
1010
0000
,
0101
1010
0000
0000
0101
1010
0101
0000
1010
0000
0102
0000
0000
0000
0113
0000
,
1001
0000
0120
0000
0000
0000
1030
0000
0010
0100
0010
0000
1000
0100
0000
0100
,
0010
0000
0100
0000
0010
0100
0010
1000
0100
0010
0001
0010
0100
0010
0100
0000
,
1000
0100
0000
0000
0010
0100
1000
0100
0010
0001
0100
0010
0100
0010
0100
1000
,
0100
0000
0001
0000
0100
0010
0010
0000
0100
0000
2001
0000
0000
0000
3101
1010
,
0101
1010
0101
0000
0000
0000
1010
0000
1010
0101
1010
0000
0101
1010
0000
1010
,
0101
0000
1010
0000
0101
1010
0101
1010
0101
1010
0101
1010
0101
1010
0000
0101
,
1010
0000
0101
0000
1010
0101
0101
0000
1010
0000
0101
0101
1010
0101
1100
0000
,
1010
0101
0000
0000
0101
1010
0101
0000
0101
0000
0102
0000
0000
0000
1103
0000
,
0110
0011
0000
0101
1010
0102
0000
1103
,
0110
0011
0000
0101
0110
2010
0000
3011
,
0110
2100
0000
3000
0000
0000
0000
0000
;
